#TITLE:A Happy Life;
#SUBTITLE:- Manabi Straight! Opening;
#ARTIST:林原めぐみ;
#TITLETRANSLIT:;
#SUBTITLETRANSLIT:;
#ARTISTTRANSLIT:Megumi Hayashibara;
#CREDIT:Asahina-san;
#BANNER:videobanner.avi;
#BACKGROUND:background 1.jpg;
#LYRICSPATH:manabi.lrc;
#CDTITLE:Asahina-san.png;
#MUSIC:manabi op.mp3;
#OFFSET:0.390;
#SAMPLESTART:59.952;
#SAMPLELENGTH:25.000;
#SELECTABLE:YES;
#BPMS:0.000=107.050;
#STOPS:;
#BGCHANGES:1.000=nosound.avi=1.000=1=0=0,
156.000=background 2.jpg=1.000=1=0=0,
99999=-nosongbg-=1.000=0=0=0 // don't automatically add -songbackground-
;
// cache tags:
#FIRSTBEAT:1.000;
#LASTBEAT:160.250;
#SONGFILENAME:songs/Otaku's Dream 3rd Anime Mix/[Asahina-san] A Happy Life - Manabi Straight OP/manabi.sm;
#HASMUSIC:1;
#HASBANNER:1;
#MUSICLENGTH:89.960;
// end cache tags

//---------------dance-single - Blank----------------
#NOTES:
     dance-single:
     Blank:
     Hard:
     7:
     0.565,0.595,0.745,0.300,0.161,262.000,67.000,27.000,0.000,0.000:









0000
0000
0000
1010
0000
0000
1001
0110
,
0000
0101
0000
1010
0000
0000
0000
1100
,
0000
0110
0000
0011
0000
0000
0000
0000
,
0000
1010
0000
0101
0000
0000
0000
0011
,
0000
1010
0000
0202
0000
0000
0003
0002
,
0303
0000
0022
0000
0000
0033
2200
0000
0000
0000
0000
3300
0000
0000
0022
0000
,
0000
0033
2002
0000
0000
3003
0220
0000
0000
0330
2002
0000
0000
3003
0220
0000
,
0000
0000
0000
0000
0000
0030
0300
0000
2020
0000
0000
0000
0000
0000
0000
0000
3030
0000
0000
0000
0000
0000
0000
0000
0001
0000
0000
0000
0000
0000
0000
0000
0010
0000
0000
0000
0000
0000
0000
0000
1000
0000
0000
0000
0000
0000
0000
0000
0100
0000
0000
0000
0000
0000
0000
0000
0010
0000
0000
0000
0000
0000
0000
0000
,
0100
0000
0001
0000
0010
1000
0010
1000
0010
1000
0010
1000
0010
1000
0010
1000
,
0010
1000
0010
1000
0010
1000
0011
0000
0010
0000
0100
0000
0010
0000
1000
0000
,
0010
0000
0100
0000
0001
0000
0010
0000
0100
0000
0010
0000
1100
1100
0000
0000
,
0010
0100
0001
0110
0000
0000
0010
1000
,
0100
0010
0001
0000
0100
0000
0101
0000
0000
0000
0000
0000
0010
0000
1000
0000
,
0010
0001
0100
0000
0010
0000
0110
0000
0000
0000
0000
0000
0001
0000
0010
0000
,
0100
1000
0100
0110
0001
0110
0010
1100
,
0010
0011
0010
0110
0000
0000
0010
1000
,
0001
0100
1000
0000
0010
0000
2100
0000
0010
0001
0000
0020
0000
0030
3001
0000
,
0010
0100
0010
1000
0000
0000
0100
0010
,
0001
0010
0100
1100
0000
0110
0000
1010
,
0000
0000
0011
0000
0000
0000
0000
0000
0010
0000
0100
0000
0010
0100
0000
0000
,
0000
0100
1000
0100
0000
1010
0001
0000
,
0001
0101
0010
0100
0010
0110
0010
0000
,
0010
0110
0000
0001
0000
1001
0001
0000
,
0001
1010
0000
0010
1000
0001
0100
0010
,
1000
0000
0010
0000
1000
0000
0001
0000
0100
0001
0010
0000
2100
0000
0000
0000
,
3010
0000
0001
0000
0010
0000
0100
0000
0010
0000
1000
0100
0012
0000
0000
0000
,
0013
0100
0010
1000
0100
0010
0011
0000
,
0100
0010
0012
0100
0010
1003
0010
0100
,
0010
0000
1000
0000
0100
0000
0010
0000
0001
0000
0010
0100
0011
0000
0000
0000
,
0100
0000
1000
0000
0100
0000
0010
0000
0001
0000
0100
0010
1100
0000
0000
0000
,
0100
0000
1000
0000
0100
0000
0010
0000
0001
0100
0010
0000
0110
0000
0000
0000
,
1000
0100
1000
0100
0001
0110
0100
0011
,
0100
0000
0110
0000
0001
0000
1100
0000
0010
1000
0100
0000
1010
0000
0000
0000
,
1000
0000
0100
0000
0001
0000
0010
0000
0100
0001
0010
0000
1100
0000
0000
0000
,
0010
0000
0100
0000
0001
0000
0010
0000
1000
0001
0010
0000
1100
0000
0000
0000
,
0100
0000
0100
0000
1000
0000
0100
0000
0100
0001
0010
0000
0011
0000
1100
0000
,
0110
0110
0210
0000
0001
0001
0001
0001
,
0001
0000
0001
0000
0001
0000
0300
0000
0101
0000
0000
0110
0000
0000
1100
0000
,
0000
0000
0001
1000
0100
0001
1010
0000
0001
0100
0010
0000
0022
0000
0000
0000
,
0000
0000
0000
0000
0000
0033
0000
0000
;

//---------------dance-single - Blank----------------
#NOTES:
     dance-single:
     Blank:
     Challenge:
     9:
     0.856,0.778,0.789,0.200,0.884,450.000,71.000,18.000,0.000,0.000:
0000
0000
1010
0101
0000
0000
1010
0110
,
0011
1000
0000
0001
0100
1000
0011
0000
0000
0000
0000
0000
0010
0000
0100
0000
,
0001
0010
1100
0000
0010
0000
1100
0000
0000
0000
0000
0000
0010
0000
0100
0000
,
0001
0010
1100
0000
1000
0000
0011
0000
0010
0000
0100
0000
0001
0100
0010
0100
,
0010
0100
0001
1000
0010
0100
0001
0000
0001
0000
0101
0000
0010
0100
0010
1000
,
0010
0000
1100
0000
0010
0100
0001
1000
0010
0001
1100
0001
0010
0001
0100
0010
,
0001
0010
1100
0001
1010
0001
0100
0001
0010
1000
0011
0100
0001
0100
0010
0001
,
0100
1000
0010
0001
1000
0001
0010
1000
0001
1000
0010
0001
0100
0010
1000
0000
,
0001
0000
0010
0000
0100
0000
0001
0100
0010
0100
0010
0100
0010
0100
0010
0100
,
0010
0100
0010
0100
0010
0100
1001
0000
0011
0000
1010
0000
0011
1100
0000
1010
,
0000
0000
0110
0000
1100
0000
0001
0010
0100
0001
0100
0010
1100
2100
0001
0010
,
0100
0010
0001
0000
3010
0000
0101
0000
0000
0000
0000
0000
0010
0000
1000
0000
,
0010
0100
0001
1000
0010
0000
2100
0000
0010
0001
0010
3100
0010
0100
0001
0000
,
0010
0000
0100
0000
0001
0000
0012
0000
0010
0100
1000
0103
0010
1000
0100
0001
,
0010
1000
0001
0000
0010
0000
1100
0000
0100
0000
0110
0000
0001
0000
0011
0000
,
0010
0000
0110
0000
0001
0100
0010
0001
0010
0100
1000
0100
0010
1000
0010
0100
,
0001
0100
0010
1000
0010
0000
1100
0000
0010
0100
0001
0000
0102
0010
0100
1003
,
0100
0000
1000
0000
0010
0100
0001
0000
0010
0000
0100
0000
0010
1000
0001
0100
,
0010
1000
0010
0000
0100
0000
1100
0000
0010
0100
0000
0001
0100
0000
0010
0000
,
1000
0000
0010
0000
0100
0000
0000
0000
0011
0000
1010
0000
1100
0011
1100
0000
,
0010
0100
1000
0001
0010
0001
0100
1000
0010
1000
0010
0001
1200
0010
1000
0010
,
0301
0000
0100
0000
0001
0000
0010
0000
0100
0010
0100
0000
0210
0010
0001
0310
,
1000
0000
0100
0000
0010
0000
1000
0000
0010
1000
0001
0000
2100
0010
0001
0010
,
3100
0000
0100
0000
0001
0000
0101
0000
0010
0000
1000
0100
0010
0001
0010
0100
,
1000
0010
0001
0100
0010
0000
1000
0000
0010
0100
0010
0000
0021
1000
0100
0001
,
0130
1000
0100
0000
0001
0000
0100
0000
0010
0100
0001
0000
2010
0100
0010
3001
,
0010
0000
0100
0000
0010
0000
1000
0000
0010
0100
0001
0000
0101
0000
0010
0000
,
1000
0000
0010
0000
0011
1100
0011
0000
0010
0100
0001
0100
0010
0100
0010
0100
,
0010
0100
0010
0100
0010
0100
0001
1000
0100
0001
0011
0000
2001
0010
0100
0010
,
3001
0010
0100
0000
0001
0000
0010
0000
0010
0100
0010
0000
1002
0010
0100
1000
,
0103
0010
0100
0000
0001
0000
0100
0000
0010
0100
0010
0100
0210
0010
0001
0310
,
1000
0100
0010
1100
0010
1100
0010
0101
,
0010
0000
0001
0100
0001
0000
0010
0000
0100
0010
1000
0001
0102
0010
0100
1003
,
0010
0000
0100
0000
0001
0000
0100
0000
0010
1000
0010
0000
2100
0100
0010
0100
,
3001
0000
0100
0000
0010
0000
0100
0000
0001
0100
0010
0100
0001
1000
0100
0010
,
1000
0010
0001
0100
1000
0001
0010
1000
1001
0110
0110
0000
0210
0001
0010
1000
,
0010
0301
0100
1000
0102
0000
0000
0000
1000
0100
0010
0100
1000
0100
0010
0100
,
1000
0100
0010
0100
1000
0000
0003
0000
1001
0000
0000
0110
0000
0000
0101
0000
,
0000
0101
0011
1000
0010
0100
0001
1000
0010
0100
0001
1000
0022
0000
0000
0000
,
0000
0000
0000
0000
,
0033
0000
0000
0000
;

//---------------dance-single - Blank----------------
#NOTES:
     dance-single:
     Blank:
     Medium:
     5:
     0.356,0.356,0.389,0.300,0.011,162.000,35.000,27.000,0.000,0.000:



0000
0000
0000
1010
0000
0000
0000
0110
,
0000
0011
0000
1100
0000
0000
0000
0110
,
0000
0011
0000
0110
0000
0000
0000
0000
,
0000
1100
0000
0110
0000
0011
0000
0110
,
0000
0000
0000
0000
1100
0000
0000
0000
0000
0000
0000
0000
0220
0000
0000
0000
0000
0000
0000
0000
0000
0000
0000
0000
0000
0000
0000
0330
0002
0000
0000
0000
,
0000
2003
0000
3020
0000
0230
0000
0302
,
0000
2003
0000
3020
0000
0230
0000
0302
,
0000
0023
0000
0230
0000
2300
0000
3200
,
0000
0320
0000
0230
0000
0302
0000
0023
,
0000
0230
0000
0320
0000
2030
0000
3020
,
0000
0000
0130
0000
0000
0000
0001
0000
0010
0000
1000
0000
0010
1000
0000
0000
,
0000
0000
0000
1001
0000
0000
0000
0010
,
0000
0100
0000
0110
0000
0000
0001
0010
,
0000
0100
0000
1100
0000
0000
0010
0100
,
0010
0100
0001
1100
0010
0100
0001
0100
,
0010
1000
0100
1100
0000
0000
0000
0011
,
0000
0110
0000
1100
0010
0100
0101
0000
,
0010
1000
0010
0100
0000
0000
1000
0100
,
0010
0100
0001
0110
0000
0010
0000
1000
,
0000
0000
0100
0000
0000
0000
0000
0000
0010
0000
0100
0000
0010
0100
0000
0000
,
0000
0000
0000
0001
0000
1010
0000
0001
,
0000
1010
0000
0010
0000
1100
0000
0100
,
0000
1100
0000
0100
0000
0110
0000
0010
,
0000
0011
0000
0010
0000
1000
0000
0100
,
0000
0010
0000
0001
0000
0010
0000
0100
,
0000
0010
0000
1000
0000
0100
0000
0010
,
0000
0100
0000
0001
0000
0010
0000
1000
,
0000
0100
0000
0010
0000
0001
0010
0100
,
0000
0000
0000
1000
0000
0100
0000
0001
,
0000
0010
0000
0100
0000
0010
1100
0000
,
0010
0100
0001
0100
0000
0010
1100
0000
,
0010
0100
0001
0010
0000
1000
0000
0100
,
0000
0010
0000
0101
0000
0000
0010
0000
,
0100
0010
0000
0100
0000
0001
1000
0000
,
0010
1000
0000
1000
0000
1000
0000
1000
,
0000
0100
0000
0010
0000
0001
0000
0010
,
1000
0100
2200
0000
0000
0000
0000
0000
,
0000
0000
3300
0000
0101
0010
0000
1000
,
0000
0001
0100
0022
0000
0000
0000
0000
,
0000
0000
0000
0000
,
0033
0000
0000
0000
;

//---------------dance-single - Blank----------------
#NOTES:
     dance-single:
     Blank:
     Easy:
     3:
     0.252,0.312,0.122,0.044,0.006,144.000,11.000,4.000,0.000,0.000:


0000
0000
0000
1010
0000
0000
0000
0101
,
0000
0000
0000
0010
0000
0000
0000
1000
,
0000
0100
0000
0010
0000
0000
0000
0000
,
0000
0001
0000
0010
0000
0000
0000
1000
,
0000
0100
0000
0010
0000
0000
0000
0001
,
0000
0000
0000
1000
0000
0000
0000
0100
,
0000
0010
0000
0001
0000
0000
0000
0010
,
0000
1000
0000
0100
0000
0000
0000
0100
,
0000
1000
0000
0100
0000
0000
0000
0010
,
0000
0100
0000
0010
0000
0000
0000
0001
,
0000
0010
0000
0001
0000
0010
0000
0110
,
0000
0000
0000
0001
0000
1000
0000
0010
,
0000
0100
0000
1100
0000
0000
0100
0010
,
0000
0100
0000
0101
0000
0000
0010
0100
,
0000
0010
0000
0110
0000
0000
1000
0100
,
0000
1000
0000
1100
0000
0000
0010
0100
,
0000
0010
0000
0100
0000
0001
0000
0010
,
0000
1000
0000
0100
0000
0010
0000
0100
,
0000
0001
0000
0110
0000
0000
0000
0000
,
0000
0000
0000
0000
0000
0000
0000
0000
0100
0000
0010
0000
0010
0100
0000
0000
,
0000
0000
0000
0010
0000
0100
0000
0010
,
0000
1000
0000
0100
0000
0010
0000
0001
,
0000
0010
0000
0100
0000
0000
0100
0000
,
0100
0100
0000
0010
0000
1000
0000
0100
,
0000
0010
0000
0001
0000
0000
0010
0000
,
0010
0100
0000
1000
0000
0000
0100
0000
,
0100
0010
0000
0001
0000
0010
0000
1000
,
0000
0100
0000
0010
0000
0100
0001
0101
,
0000
0000
0000
0010
0000
0000
1000
0000
,
0000
1000
0000
0100
0000
0000
0010
0000
,
0001
0010
0000
0100
0000
0000
1000
0000
,
0100
0100
0000
0010
0000
0001
0000
0010
,
0000
0100
0000
1000
0000
0100
0010
0000
,
0001
0010
0000
0100
0000
1000
0100
0000
,
0001
0010
0000
0100
0000
1000
0000
0100
,
0000
0010
0000
0100
0000
0001
0000
0010
,
0100
1000
2200
0000
0000
0000
0000
0000
,
3300
0001
0010
0100
0010
0100
0010
0001
,
1000
0010
0001
0100
0010
1000
0022
0000
,
0000
0000
0000
0000
,
0000
0033
0000
0000
0000
0000
0000
0000
0000
0000
0000
0000
0000
0000
0000
0000
;

//---------------dance-single - Blank----------------
#NOTES:
     dance-single:
     Blank:
     Beginner:
     1:
     0.127,0.171,0.100,0.000,0.000,71.000,9.000,0.000,0.000,0.000:

0000
0000
0000
1010
0000
0000
0000
0001
,
0000
0010
0000
0100
0000
0000
0000
0010
,
0000
0000
0000
0100
0000
0000
0000
0000
,
0000
0001
0000
0010
0000
0000
0000
0100
,
0000
0000
0000
1000
0000
0000
0000
0100
,
0000
0010
0000
0001
0000
0000
0000
0100
,
0000
0000
0000
1000
0000
0000
0000
0100
,
0000
0000
0000
0010
0000
0000
0000
0001
,
0000
0000
0000
0010
0000
0000
0000
1000
,
0000
0000
0000
1000
0000
0000
0000
0100
,
0000
0000
0000
0010
0000
0000
0000
0001
,
0000
0010
0000
0100
0000
0000
0000
1000
,
0000
0100
0000
0010
0000
0000
0000
0001
,
0000
0010
0000
1000
0000
0000
0000
1000
,
0000
0100
0000
0001
0000
0010
0000
1000
,
0000
0100
0000
0110
0000
0000
0000
0001
,
0000
0000
0000
1000
0000
0000
0000
0100
,
0000
0000
0000
0010
0000
0000
0000
0100
,
0000
0000
0000
0001
0000
0000
0000
1000
,
0000
0000
0000
0100
0000
0000
0000
0010
,
0000
0000
0000
1001
0000
0000
0000
0000
,
0000
0000
0000
0110
0000
0000
0000
0000
,
0000
0000
0000
1100
0000
0000
0000
0000
,
0000
0000
0000
0110
0000
0000
0000
0000
,
0000
0000
0000
0011
0000
0000
0000
0000
,
0000
0000
0000
0100
0000
0000
0000
0000
,
0000
0000
0000
1000
0000
0000
0000
0000
,
0000
0000
0000
0100
0000
0000
0000
0000
,
0000
0000
0000
0011
0000
0000
0000
0000
,
0000
0000
0000
0010
0000
0000
0000
0000
,
0000
0000
0000
0100
0000
0000
0000
0000
,
0000
0000
0000
0001
0000
0000
0000
0000
,
0000
0000
0000
1000
0000
0000
0000
0000
,
0000
0000
0000
0100
0000
0000
0000
0000
,
0000
0000
0000
0010
0000
0000
0000
0000
,
0000
0000
0000
0001
0000
0000
0000
0000
,
0000
0000
0000
1000
0000
0100
0000
0010
,
0000
0001
0000
0011
0000
0000
0000
0000
,
0000
0001
0000
1000
0000
0000
0000
0000
;
